DORAMALAND

Часовой пояс: UTC + 3 часа




Начать новую тему Ответить на тему  [ Сообщений: 19 ]  На страницу Пред.  1, 2
Статистика раздачи
Размер: 1.46 ГБ | Добавлен: 28 янв 2012, 23:00 | Скачали: 108 | Здоровье: 100%
Сидеров: 9 (0 байт/сек) | Личеров: 0 (0 байт/сек)
Последний сидер: 2д 22ч 51мин 15сек назад | Последний личер: 437д 2ч 12мин 2сек назад
Автор Сообщение
 Заголовок сообщения: Буду любить тебя 10 тысяч лет / Love You 10.000 Years (Toyoharu Kitamur) [Тайвань, 2010, Романтическая комедия, DVDRip] [CHI+SUB]
СообщениеДобавлено: 07 фев 2011, 00:26 
Не в сети
Релизёр
Релизёр
Аватара пользователя

Автор темы
Раздал: 3.89 ТБ
Скачал: 210.72 ГБ
Ратио: 19.350
Спасибо: 425 / 11
Торренты: 79 (0 / 0) / 207.66 ГБ
Комментарии: 104
Запросов сидеров: 1 / 29

Зарегистрирован: 27 фев 2013, 20:42
Сообщения: 164
Буду любить тебя 10 тысяч лет / Love You 10.000 Years

#77
Год выпуска: 2010
Страна: Тайвань
Жанр: Романтическая комедия
Продолжительность: 01:47:51

Перевод: субтитры
Cубтитры: русские

Режиссёр: Toyoharu Kitamura / Тоёхару Китамура

В ролях:
Vic Zhou
Kato Yuki
Yuzhi Lin
Yue Wang
Huang Deng Hui
Hao Lei
Li Bo En
Chen Shan

Описание::
Таким вы его еще не видели…

Вик Чоу - в новом дерзком образе: небритый… взъерошенный… в неприлично ярко-розовом костюме…
Вик Чоу – в роли солиста рок-группы... Не ожидали?
Он будет для вас петь… играть на гитаре… танцевать…
Думаете это легко? Нет!
Ему предстоит непростая задача: перепеть на собственный манер
старинную классическую песню "Love You Ten Thousand Years",
исполняемую ранее Wynners, Five Tigers, Wu Bai and Li Yi Chun!
И он сделает это, поверьте мне, друзья!

Чего вам еще не хватает для полного счастья, когда вы смотрите фильм?

Может, вам наскучили традиционные детские поцелуи-прилипучки в дорамах?
Может, вам не хватает страстной постельной сцены?
Хм… все поправимо…

Итак, подытожим…

Рецепт успеха фильма прост:
- в качестве ингредиентов берем двух симпатичных главных героев,
- в основу блюда закладываем любовь,
- приправляем полученное хорошей музыкой и танцами.

Приятного аппетита!
(с) Виктория


Дополнительно:
Переводчик: Виктория
Редактор: Лариса
Поэт-песенник: Ali-san
Верстка текста: aka_Mia

Качество: DVDRip
Формат видео: AVI
Видео: XviD 720х400 23.976 fps
Аудио: AC3 48 kHz

Фильм на сайте альянса
Смотреть онлайн

Format : AVI
Format/Info : Audio Video Interleave
File size : 1.46 GiB
Duration : 1h 47mn
Overall bit rate : 1 942 Kbps
Writing application : VirtualDubMod 1.5.10.2 (build 2542/release)
Writing library : VirtualDubMod build 2542/release
Video #0
ID : 0
Format : MPEG-4 Visual
Format profile : AdvancedSimple@L5
Format settings, BVOP : Yes
Format settings, QPel : No
Format settings, GMC : No warppoints
Format settings, Matrix : Default (MPEG)
Muxing mode : Packed bitstream
Codec ID : XVID
Codec ID/Hint : XviD
Duration : 1h 47mn
Bit rate : 1 484 Kbps
Width : 720 pixels
Height : 400 pixels
Display aspect ratio : 16:9
Frame rate : 23.976 fps
Resolution : 24 bits
Colorimetry : 4:2:0
Scan type : Progressive
Bits/(Pixel*Frame) : 0.215
Stream size : 1.12 GiB (76%)
Writing library : XviD 58
Audio #1
ID : 1
Format : AC-3
Format/Info : Audio Coding 3
Codec ID : 2000
Duration : 1h 47mn
Bit rate mode : Constant
Bit rate : 448 Kbps
Channel(s) : 2 channels
Channel positions : L R
Sampling rate : 48.0 KHz
Stream size : 346 MiB (23%)
Alignment : Split accross interleaves
Interleave, duration : 42 ms (1.00 video frame)
Interleave, preload duration : 500 ms











У вас нет необходимых прав для просмотра вложений в этом сообщении.

_________________
Расскажи-ка денежка, где была??? Расскажи зелёная, как дела? За тобою бегал я целый год... Ты меня не видела... А я Вот! - А ну-ка давай-ка... приди на мой счёт... и в баксах, и в евро и чтоб круглый год!!!


Последний раз редактировалось Anonymous 28 янв 2012, 23:00, всего редактировалось 6 раз(а).

Вернуться к началу
 Профиль  
 
 Заголовок сообщения: Re: Буду любить тебя 10 тысяч лет / Love You 10.000 Years (Toyoharu Kitamur) [2010, Тайвань, Романтическая комедия, DVDRip] [CHI+SUB]
СообщениеДобавлено: 30 июл 2011, 01:06 
Не в сети
Пользователь
Пользователь
Аватара пользователя
Раздал: 378.74 ГБ
Скачал: 64.57 ГБ
Ратио: 5.927
Спасибо: 0 / 4
Торренты: 0 (0 / 0) / 0 байт
Комментарии: 1
Запросов сидеров: 1 / 31

Зарегистрирован: 07 апр 2011, 23:27
Сообщения: 1
Откуда: Запорожье
Огромное спасибо!!! :as023: Обожаю Вика, до чего же у него мимика живая :as034:


Вернуться к началу
 Профиль  
 
 Заголовок сообщения: Re: Буду любить тебя 10 тысяч лет / Love You 10.000 Years (Toyoharu Kitamur) [2010, Тайвань, Романтическая комедия, DVDRip] [CHI+SUB]
СообщениеДобавлено: 29 янв 2012, 10:47 
Не в сети
Администратор
Администратор
Аватара пользователя
Раздал: 21.97 ТБ
Скачал: 732.5 МБ
Ратио: None.
Спасибо: 2073 / 15
Торренты: 96 (0 / 0) / 193.66 ГБ
Комментарии: 1082
Запросов сидеров: 2 / 99

Зарегистрирован: 05 июл 2010, 19:39
Сообщения: 1057
ВикВик, нет информации про хардсаб. В первом посту нужно написать "Хардсаб отсутствует/присутствует" и, если его нет, добавить в шапку тег [RAW].

_________________
Спасибо всем, кто поддерживает раздачи!


Вернуться к началу
 Профиль  
 
 Заголовок сообщения: Re: Буду любить тебя 10 тысяч лет / Love You 10.000 Years (Toyoharu Kitamur) [2010, Тайвань, Романтическая комедия, DVDRip] [CHI+SUB]
СообщениеДобавлено: 12 дек 2015, 20:34 
Не в сети
Администратор
Администратор
Аватара пользователя
Раздал: 108.29 ТБ
Скачал: 659.87 ГБ
Ратио: 190.316
Спасибо: 2182 / 46
Торренты: 283 (0 / 0) / 361.49 ГБ
Комментарии: 1532
Запросов сидеров: 6 / 189

Зарегистрирован: 13 май 2012, 23:05
Сообщения: 1724
Нужно прописать наличие / отсутствие хардсаба.
И если его нет добавить в шапку [RAW]


Вернуться к началу
 Профиль  
 
 Заголовок сообщения: Re: Буду любить тебя 10 тысяч лет / Love You 10.000 Years (Toyoharu Kitamur) [Тайвань, 2010, Романтическая комедия, DVDRip] [CHI+SUB]
СообщениеДобавлено: 09 июн 2017, 10:33 
Не в сети
Пользователь
Пользователь
Аватара пользователя
Раздал: 43.8 ГБ
Скачал: 189.35 ГБ
Ратио: 0.244
Спасибо: 0 / 0
Торренты: 0 (0 / 0) / 0 байт
Комментарии: 1
Запросов сидеров: 0 / 15

Зарегистрирован: 04 июн 2017, 06:00
Сообщения: 1
:as023:


Вернуться к началу
 Профиль  
 
Показать сообщения за:  Поле сортировки  
Начать новую тему Ответить на тему  [ Сообщений: 19 ]  На страницу Пред.  1, 2

Часовой пояс: UTC + 3 часа


Кто сейчас на конференции

Сейчас этот форум просматривают: нет зарегистрированных пользователей и гости: 1


Вы не можете начинать темы
Вы не можете отвечать на сообщения
Вы не можете редактировать свои сообщения
Вы не можете удалять свои сообщения
Вы не можете добавлять вложения

Перейти:  
Ресурс не предоставляет электронные версии произведений, а занимается лишь коллекционированием и каталогизацией ссылок, присылаемых и публикуемых на форуме нашими читателями. Если вы являетесь правообладателем какого-либо представленного материала и не желаете чтобы ссылка на него находилась в нашем каталоге, свяжитесь с нами и мы незамедлительно удалим её. Файлы для обмена на трекере предоставлены пользователями сайта, и администрация не несёт ответственности за их содержание. Просьба не заливать файлы, защищенные авторскими правами, а также файлы нелегального содержания!